<?xml version="1.0" standalone="no"?>
<!DOCTYPE svg PUBLIC "-//W3C//DTD SVG 1.1//EN" "http://www.w3.org/Graphics/SVG/1.1/DTD/svg11.dtd" >
<svg xmlns="http://www.w3.org/2000/svg">
<metadata>Generated by IcoMoon</metadata>
<defs>
<font id="doqa-cabinet-font" horiz-adv-x="4096">
<font-face units-per-em="4096" ascent="3840" descent="-256" />
<missing-glyph horiz-adv-x="4096" />
<glyph unicode="&#x20;" horiz-adv-x="2048" d="" />
<glyph unicode="&#xe900;" glyph-name="arrow_left" d="M2321 887.4l-785.064 785.060c-17.064 17.080-29.156 35.572-36.264 55.48s-10.664 41.248-10.664 64c0 22.752 3.556 44.084 10.664 63.992s19.2 38.4 36.264 55.468l785.064 785.064c31.292 31.288 71.108 46.936 119.46 46.936 48.372 0 88.188-15.644 119.48-46.936s46.92-71.112 46.92-119.464c0-48.356-15.628-88.18-46.92-119.468l-665.608-665.592 665.608-665.6c31.292-31.292 46.92-71.108 46.92-119.48 0-48.352-15.628-88.168-46.92-119.46s-71.108-46.94-119.48-46.94c-48.352 0-88.168 15.648-119.46 46.94z" />
<glyph unicode="&#xe901;" glyph-name="avatar" d="M2333.952 2931.904c-158.292 158.296-414.936 158.296-573.228 0s-158.296-414.936 0-573.228c158.292-158.292 414.936-158.292 573.228 0s158.292 414.936 0 573.228zM1489.196 3203.432c308.256 308.256 808.032 308.256 1116.296 0 308.248-308.256 308.248-808.032 0-1116.284-308.264-308.256-808.040-308.256-1116.296 0s-308.256 808.032 0 1116.284zM1008.996 1468.204c289.136 168.324 665.036 258.388 1038.34 258.388s749.208-90.064 1038.336-258.388c287.412-167.32 518.988-432.964 518.988-785.58v-170.676c0-200.244-162.408-362.648-362.648-362.648h-2389.344c-200.244 0-362.668 162.408-362.668 362.648v170.676c0 352.616 231.588 618.26 518.996 785.58zM1202.192 1136.332c-222.544-129.536-328.196-289.896-328.196-453.708v-149.324h2346.66v149.324c0 163.816-105.652 324.172-328.192 453.708-220.8 128.564-527.58 206.26-845.132 206.26s-624.324-77.696-845.14-206.26z" />
<glyph unicode="&#xe902;" glyph-name="caret-down" d="M1928.62 1399.468l-443.74 443.732c-54.044 54.052-66.132 115.916-36.268 185.6s83.2 104.532 160 104.532h878.94c76.8 0 130.132-34.852 160-104.532s17.768-131.548-36.268-185.6l-443.732-443.732c-17.068-17.068-35.568-29.868-55.468-38.4-19.916-8.532-41.252-12.8-64-12.8-22.768 0-44.1 4.268-64 12.8-19.916 8.532-38.4 21.332-55.468 38.4z" />
<glyph unicode="&#xe903;" glyph-name="check" d="M3260.3 2823.696c17.468 17.828 38.296 31.988 61.324 41.656 22.996 9.668 47.72 14.648 72.676 14.648s49.68-4.98 72.676-14.648c23.024-9.668 43.884-23.828 61.352-41.656 73.2-73.984 74.224-193.536 2.544-268.8l-1513.716-1789.444c-17.188-18.872-38.044-34.028-61.292-44.56-23.252-10.56-48.404-16.236-73.924-16.704-25.52-0.496-50.872 4.244-74.5 13.896s-45.040 24.048-62.924 42.248l-921.088 933.38c-35.524 36.228-55.42 84.944-55.42 135.68s19.896 99.452 55.42 135.68c17.472 17.828 38.324 31.988 61.336 41.656s47.72 14.648 72.68 14.648c24.964 0 49.668-4.98 72.684-14.648s43.864-23.828 61.336-41.656l781.312-791.808 1382.412 1644.8c1.58 1.976 3.276 3.86 5.12 5.632z" />
<glyph unicode="&#xe904;" glyph-name="cross" d="M1285.312 2735.908c-49.988 49.988-131.032 49.988-181.020 0s-49.988-131.032 0-181.020l848.156-848.148-848.156-848.16c-49.988-49.992-49.988-131.032 0-181.024s131.032-49.992 181.020 0l848.152 848.16 848.16-848.16c49.992-49.992 131.032-49.992 181.024 0s49.992 131.032 0 181.024l-848.16 848.16 848.16 848.148c49.992 49.988 49.992 131.032 0 181.020s-131.032 49.988-181.024 0l-848.16-848.156-848.152 848.156z" />
<glyph unicode="&#xe905;" glyph-name="deactivate-license" d="M2477.16 3413.4v-435.644c0-208.18 182.476-390.736 419.552-390.736h474.092v399.716c0 235.64-191.036 426.664-426.66 426.664h-466.984zM2221.16 3413.4h-1111.692c-235.644 0-426.668-191.024-426.668-426.664v-2389.332c0-235.644 191.024-426.66 426.668-426.66h1834.676c235.624 0 426.66 191.016 426.66 426.66v1733.616h-474.092c-365.24 0-675.552 284.308-675.552 646.736v435.644zM426.8 2986.732c0 377.028 305.64 682.668 682.668 682.668h1834.676c377.016 0 682.66-305.64 682.66-682.668v-2389.332c0-377.036-305.644-682.66-682.66-682.66h-1834.676c-377.028 0-682.668 305.624-682.668 682.66v2389.332zM2048.144 819.26c-348.76 0-631.476 282.728-631.476 631.48 0 348.74 282.716 631.456 631.476 631.456 348.732 0 631.46-282.716 631.46-631.456 0-348.752-282.728-631.48-631.46-631.48zM2048.144 597.4c471.264 0 853.32 382.056 853.32 853.34 0 471.276-382.056 853.324-853.32 853.324-471.292 0-853.344-382.052-853.344-853.324 0-471.284 382.052-853.34 853.344-853.34zM1595.868 1450.74c0 61.256 49.668 110.92 110.932 110.92h682.664c61.276 0 110.94-49.664 110.94-110.92 0-61.276-49.664-110.94-110.94-110.94h-682.664c-61.264 0-110.932 49.664-110.932 110.94z" />
<glyph unicode="&#xe906;" glyph-name="document" d="M2261.332 3370.668h-725.332c-414.044 0-670.576-83.592-826.824-239.844s-239.844-412.78-239.844-826.824v-1024c0-414.036 83.592-670.568 239.844-826.828 156.252-156.244 412.784-239.836 826.824-239.836h1024c414.036 0 670.584 83.592 826.828 239.836 156.244 156.264 239.836 412.792 239.836 826.828v725.332h-554.668c-263.084 0-479.216 42.188-623.836 186.824-144.624 144.628-186.828 360.752-186.828 623.844v554.668zM3445.656 2261.332l-928.324 928.316v-373.648c0-248.908 43.144-374.116 111.836-442.824 68.712-68.708 193.928-111.844 442.828-111.844h373.656zM3882.668 2132.344v-852.344c0-439.296-87.076-780.1-314.828-1007.836-227.736-227.756-568.54-314.828-1007.836-314.828h-1024c-439.292 0-780.096 87.076-1007.844 314.828-227.748 227.736-314.824 568.54-314.824 1007.836v1024c0 439.292 87.076 780.092 314.824 1007.844s568.552 314.824 1007.844 314.824h853.332c10.836 0 21.54-1.376 31.864-4.028 22.016-5.656 42.308-17.12 58.64-33.46-16.556 16.564-36.9 27.876-58.64 33.46zM3882.512 2139.852c0.104-2.164 0.152-4.34 0.152-6.52v-0.988z" />
<glyph unicode="&#xe907;" glyph-name="caret-up" d="M1608.612 1450.6c-76.8 0-130.132 34.852-160 104.532s-17.776 131.548 36.268 185.6l443.74 443.736c17.068 17.068 35.548 29.868 55.468 38.4 19.9 8.532 41.232 12.8 64 12.8 22.748 0 44.084-4.268 64-12.8 19.9-8.532 38.4-21.332 55.468-38.4l443.732-443.736c54.032-54.052 66.132-115.916 36.268-185.6s-83.2-104.532-160-104.532h-878.94z" />
<glyph unicode="&#xe909;" glyph-name="support" d="M1947.136 3449.856c-240.16-14.352-462.34-78.408-660.628-181.956l9.024 4.292c-323.244-163.5-572.588-415.744-735.572-743.936-109.128-215.276-173.048-469.36-173.048-738.372 0-95.936 8.128-189.972 23.736-281.46l-1.388 9.824c18.092-112.128 65.364-274.772 97.792-335.872 26.284-49.664 84.14-103.424 139.776-129.364 65.708-30.892 121.172-32.084 266.068-5.972 134.144 24.236 158.208 32.256 221.524 73.9 92.844 60.756 156.672 168.448 166.74 281.428 4.948 55.124-51.2 457.216-72.020 516.436-48.812 139.092-173.396 234.496-329.388 252.076-26.452 2.9-66.388-0.34-125.268-10.24-47.444-8.020-87.724-13.14-89.6-11.264-6.656 6.484 53.932 173.74 90.624 250.196 121.048 248.688 304.008 451.044 529.248 592.144l5.96 3.484c244.396 150.7 554.836 226.132 838.316 203.948 345.6-27.308 653.652-168.448 895.66-410.452 119.468-119.468 203.092-237.396 275.796-389.12 37.204-77.484 97.108-243.712 90.452-250.54-1.876-1.876-42.324 3.244-89.772 11.436-91.648 15.532-131.584 14.676-201.388-4.268-122.708-33.62-231.424-143.7-261.632-265.216-5.632-22.528-23.38-134.316-39.424-248.32-27.476-194.9-28.672-210.604-21.164-262.656 15.188-103.596 76.972-201.9 163.328-259.244 55.636-36.864 104.108-53.76 201.556-70.144 40.448-6.828 73.388-14.508 73.388-17.068s-11.264-21.164-25.088-41.3c-114.86-161.716-256.372-296.216-419.424-399.864l-6.048-3.592c-128-79.020-304.98-148.48-455.852-179.2-51.216-9.896-114.868-18.368-179.468-23.488l-6.388-0.408c-141.996-10.068-146.772-11.092-175.276-36.012-26.868-22.78-43.808-56.56-43.808-94.3 0-24.324 7.040-47.004 19.192-66.116l-0.296 0.5c30.036-46.592 55.98-56.66 145.068-56.66 342.016 0 718.336 137.216 1004.032 366.252 262.144 210.092 467.968 523.776 557.056 848.724 38.22 132.652 60.204 285.020 60.204 442.524 0 274.704-66.868 533.788-185.212 761.864l4.348-9.212c-163.5 323.072-416.596 573.612-744.62 736.768-214.304 109.064-467.344 172.96-735.304 172.96-35.82 0-71.372-1.14-106.624-3.392l4.812 0.244zM943.444 1897.3c16.316-11.988 29.868-26.684 40.24-43.54l0.38-0.664c15.36-29.696 69.46-391.852 65.024-435.028-6.276-42.156-32.072-77.196-67.732-96.088l-0.704-0.34c-26.624-12.628-169.472-41.812-211.456-43.18-12.212 0.036-23.316 4.768-31.6 12.484l0.028-0.024c-25.428 26.624-73.388 202.58-88.064 323.584-11.264 92.16-16.556 233.644-9.388 252.416 5.972 15.7 14.164 18.432 104.62 35.5 122.196 22.7 160.428 21.844 198.656-5.12zM3344.556 1902.592c102.228-18.092 105.472-19.116 110.252-36.864 7.168-26.796-4.78-237.568-17.58-309.248-20.82-117.248-58.54-244.224-78.848-265.556-8.412-7.724-19.676-12.46-32.048-12.46-0.132 0-0.264 0-0.4 0h0.020c-42.324 1.196-183.636 30.38-211.796 43.692-37.576 19.088-63.704 55.952-67.384 99.216l-0.032 0.452c-1.536 17.748 9.556 118.272 24.916 223.404 31.232 215.212 36.352 229.548 95.232 260.608 37.376 19.796 47.788 19.628 177.664-3.244zM1737.388 1820.5c-28.812-11.652-50.9-34.8-60.876-63.6l-0.224-0.74c-37.716-89.94 28.672-181.42 126.464-174.42 69.292 4.948 115.54 57.004 115.54 129.708 0 42.496-14.508 70.144-51.372 98.132-32.94 25.26-89.26 29.868-129.536 10.924zM2249.216 1823.404c-70.316-30.548-94.72-133.46-46.080-194.048 23.328-29.728 59.256-48.648 99.604-48.648 43.388 0 81.668 21.88 104.404 55.208l0.28 0.436c16.212 23.552 19.456 35.156 19.456 70.316 0 34.304-3.412 47.104-18.772 70.316-24.416 34.212-63.976 56.252-108.684 56.252-18.1 0-35.356-3.612-51.088-10.156l0.88 0.324z" />
<glyph unicode="&#xe90a;" glyph-name="paperclip" horiz-adv-x="4268" d="M1496.636 2944.068c515.916 515.908 1354.708 515.908 1870.616 0s515.908-1354.72 0-1870.628l-663.892-663.892c-283.8-283.784-742.008-283.784-1025.816 0-283.8 283.8-283.8 742.024 0 1025.828l421.552 421.548c49.972 49.988 131.020 49.988 181.008 0s49.988-131.036 0-181.028l-421.548-421.548c-183.824-183.824-183.824-479.948 0-663.772s479.964-183.824 663.792 0l663.892 663.892c415.932 415.932 415.932 1092.648 0 1508.584s-1092.66 415.932-1508.588 0l-723.628-723.636c-349.268-349.252-349.544-916.888 0.192-1268.12 49.88-50.092 49.708-131.14-0.384-181.028-50.096-49.868-131.14-49.7-181.020 0.392-448.984 450.9-449.26 1180.332 0.192 1629.784l723.628 723.628z" />
<glyph unicode="&#xe90b;" glyph-name="ittest-logo" horiz-adv-x="17408" d="M7012.796 2947.88v-2094.544h-568.628v2094.544h568.628zM7225.020 2489.696v458.18h1820.452v-458.18h-630v-1636.364h-560.452v1636.364h-630zM9775.956 2489.696v458.18h1820.452v-458.18h-630v-1636.364h-560.452v1636.364h-630zM11810.424 853.332v2094.544h1509.548v-458.18h-940.92v-360h863.18v-458.188h-863.18v-359.988h936.824v-458.188h-1505.452zM14731.076 2293.332c-5.46 68.18-31.028 121.364-76.716 159.548-44.988 38.18-113.512 57.272-205.568 57.272-58.64 0-106.7-7.16-144.196-21.476-36.828-13.636-64.104-32.388-81.816-56.252-17.732-23.864-26.932-51.136-27.612-81.82-1.364-25.228 3.056-48.068 13.296-68.524 10.904-19.772 27.956-37.84 51.132-54.204 23.176-15.684 52.84-30 88.984-42.956 36.132-12.952 79.088-24.544 128.852-34.772l171.828-36.82c115.9-24.54 215.108-56.936 297.608-97.16s150-87.604 202.496-142.148c52.496-53.864 91.032-114.552 115.576-182.052 25.224-67.5 38.18-141.14 38.86-220.912-0.684-137.728-35.124-254.312-103.304-349.78-68.18-95.452-165.684-168.056-292.488-217.84-126.14-49.768-277.844-74.648-455.116-74.648-182.052 0-340.908 26.932-476.588 80.792-134.996 53.864-240.008 136.704-315 248.524-74.324 112.504-111.82 256.36-112.504 431.58h539.988c3.412-64.084 19.44-117.948 48.076-161.588s68.864-76.696 120.68-99.208c52.496-22.492 114.892-33.74 187.172-33.74 60.672 0 111.464 7.492 152.372 22.492s71.936 35.804 93.080 62.396c21.128 26.588 32.036 56.916 32.716 91.016-0.684 32.052-11.248 60.008-31.692 83.864-19.78 24.54-52.516 46.352-98.184 65.452-45.688 19.78-107.384 38.18-185.124 55.228l-208.64 45.004c-185.448 40.228-331.692 107.384-438.748 201.472-106.36 94.772-159.196 223.976-158.516 387.616-0.684 132.956 34.764 249.204 106.36 348.752 72.276 100.228 172.168 178.296 299.656 234.204 128.188 55.908 275.116 83.864 440.796 83.864 169.096 0 315.34-28.296 438.748-84.888s218.52-136.364 285.336-239.32c67.516-102.272 101.596-221.932 102.28-358.976h-544.084zM15462.828 2489.696v458.18h1820.416v-458.18h-629.964v-1636.364h-560.452v1636.364h-630zM2054.828 3754.668h1863.476v-841.128h-0.24v-3084.1h-838.572v1028.012h-1024.664v841.132h1024.664v1214.96h-1024.664v841.128zM4943.752 1698.576h-1024.92v-841.132h1024.92v841.132zM1030.168 670.532v1215.012h-1024.668v841.124h1024.668v1028h838.564v-3084.136h-838.564zM2879.728 2726.668h-1010.228v-825.68h1010.228v825.68zM2893.636 670.5v-841.132h-1863.472v841.132h1863.472zM844.064 3754.668h-838.564v-841.128h838.564v841.128zM844.064 1698.576h-838.564v-1869.176h838.564v1869.176z" />
<glyph unicode="&#xe90c;" glyph-name="logo" horiz-adv-x="10924" d="M1576.96 3840h881.596v-1956.192c0-359.38-94.288-652.060-282.864-878.044-108.432-130.264-246.716-233.836-414.868-310.74-166.572-76.892-337.864-115.348-513.864-115.348-350.436 0-645.872 117.704-886.308 353.108-240.436 235.396-360.652 524.164-360.652 866.28 0 331.128 119.432 617.54 358.296 859.216s521.724 362.52 848.592 362.52c51.86 0 130.436-4.708 235.712-14.124v-969.86c-72.284 56.504-144.568 84.752-216.86 84.752-91.14 0-169.716-33.748-235.716-101.228-64.432-65.912-96.644-145.956-96.644-240.104 0-91.032 33.788-169.496 101.36-235.408 67.572-64.34 148.5-96.516 242.788-96.516 226.292 0 339.432 156.148 339.432 468.456v1923.232zM4040.236 3023.156c333.152 0 618.372-120.056 855.664-360.164 238.852-238.548 358.288-524.948 358.288-859.228 0-338.98-121.004-627.736-363.008-866.268-240.436-238.548-531.148-357.82-872.164-357.82-341.004 0-632.512 119.272-874.52 357.82-242.004 240.104-363.008 528.86-363.008 866.268 0 343.688 121.004 632.456 363.008 866.28 242.004 235.408 540.58 353.108 895.74 353.108zM4016.664 2154.52c-94.288 0-174.432-34.52-240.436-103.572-66.004-67.48-99-150.664-99-249.528 0-97.304 32.996-180.476 99-249.528 67.572-69.052 147.716-103.584 240.436-103.584 94.288 0 174.432 34.532 240.436 103.584 67.572 69.052 101.364 152.224 101.364 249.528 0 98.86-33.008 182.044-99.008 249.528-66.004 69.052-146.932 103.572-242.792 103.572zM7250.148-256v1925.588c0 312.308-113.924 468.456-341.788 468.456-92.716 0-172.864-32.96-240.436-98.872-67.572-64.34-101.352-142.812-101.352-235.408 0-92.58 32.212-172.624 96.644-240.104 66.004-67.48 144.568-101.228 235.712-101.228 70.724 0 143.008 29.036 216.86 87.108v-969.864c-103.708-10.98-182.284-16.476-235.712-16.476-326.86 0-609.724 120.844-848.588 362.52s-358.296 528.872-358.296 861.572c0 342.12 120.216 630.876 360.652 866.28s535.872 353.104 886.308 353.104c176.004 0 347.296-38.448 513.864-115.348 168.152-76.896 306.436-180.476 414.868-310.736 188.576-225.984 282.864-518.668 282.864-878.044v-1958.548h-881.596zM9904.356 1493.036v-911.008c-72.284-12.548-138.284-18.832-198.008-18.832-353.576 0-648.228 116.132-883.94 348.4-235.724 232.256-353.588 523.376-353.588 873.336 0 340.548 118.648 629.316 355.944 866.28 238.864 236.976 528.792 355.46 869.796 355.46 380.304 0 679.664-111.424 898.092-334.276 220.012-221.276 330.012-524.164 330.012-908.652v-1151.112h-881.596v1087.556c0 123.984-30.64 222.844-91.932 296.608-59.712 73.764-140.64 110.636-242.792 110.636-92.708 0-172.852-33.736-240.436-101.216-67.572-67.48-101.352-147.524-101.352-240.116 0-97.304 30.64-177.336 91.932-240.104 61.28-62.784 139.072-94.164 233.36-94.164 77.004 0 148.504 20.4 214.504 61.2z" />
<glyph unicode="&#xe90d;" glyph-name="minus" d="M1252.48 1880.32c-74.112-21.632-85.888-124.544-19.2-168.192 17.92-11.648 61.44-12.288 880.512-12.288 860.8 0 861.696 0 880.896 14.080 24.844 17.428 40.888 45.944 40.888 78.204 0 33.4-17.192 62.78-43.212 79.78l-0.364 0.224c-17.28 11.264-68.864 12.16-868.608 13.184-481.408 0.64-859.264-1.536-870.912-4.992z" />
<glyph unicode="&#xe90e;" glyph-name="warning" d="M2047.984 3269.668c-136.516 0-301.688-93.676-441.028-344.952l-501.868-901.324-532.368-958.94c-129.792-234.088-124.24-418.732-54.676-537.24 69.492-118.392 227.704-213.060 495.692-213.060h1034.248c7.132 0 14.132-0.58 20.94-1.708h1013.3c266.992 0 425.352 94.6 495.104 213.164 69.768 118.612 75.604 303.224-54.1 537.14l-1034.24 1861.972c-139.332 251.276-304.504 344.952-441.004 344.952zM2027.024 58.148h-1013.292c-324.224 0-585.856 116.956-716.468 339.472-130.544 222.396-105.368 507.94 51.564 790.972l0.032 0.052 532.56 959.296 501.712 901.036c164.448 296.496 400.316 476.692 664.848 476.692 264.516 0 500.396-180.2 664.832-476.7l0.068-0.108 1034.24-1861.976c157.012-283.204 181.624-568.78 50.86-791.076-130.78-222.344-392.26-339.372-715.76-339.372h-1034.24c-7.152 0-14.148 0.58-20.956 1.708zM2047.964 2432.124c70.692 0 128-57.308 128-128v-853.34c0-70.692-57.308-128-128-128s-128 57.308-128 128v853.34c0 70.692 57.308 128 128 128zM2047.028 1109.452c-94.26 0-170.668-76.408-170.668-170.668s76.408-170.668 170.668-170.668h1.536c94.26 0 170.668 76.408 170.668 170.668s-76.408 170.668-170.668 170.668h-1.536z" />
<glyph unicode="&#xe90f;" glyph-name="arrow_long_down" d="M2048.136 157.868c-22.768 0-44.1 3.548-64 10.668-19.916 7.116-38.4 19.2-55.468 36.268l-955.736 955.732c-31.288 31.284-46.932 70.4-46.932 117.332s15.644 87.468 46.932 121.6c34.132 34.132 74.668 51.2 121.6 51.2s87.468-17.068 121.6-51.2l661.336-661.332v2589.868c0 48.356 16.348 88.888 49.068 121.6 32.7 32.712 73.232 49.068 121.6 49.068 48.348 0 88.884-16.356 121.6-49.068 32.7-32.712 49.068-73.244 49.068-121.6v-2589.868l665.6 661.332c31.284 31.284 70.4 47.652 117.332 49.068s87.468-14.932 121.6-49.068c31.284-31.284 46.932-71.116 46.932-119.468s-15.652-88.184-46.932-119.468l-955.732-955.732c-17.068-17.068-35.568-29.148-55.468-36.268-19.916-7.116-41.252-10.668-64-10.668z" />
<glyph unicode="&#xe910;" glyph-name="deactivating_licenses" d="M1510.064 2759.72c43.044 28.452 101.576 23.704 139.5-14.164 43.324-43.324 43.324-113.68 0-157l-331.832-331.832c-20.804-20.804-49.080-32.5-78.5-32.5-22.068 0-43.408 6.6-61.5 18.664l-17 13.836-199.168 199.168 78.5 78.332 78.5 78.5 120.668-120.668 253.5 253.5 17.332 14.164zM961.56 2612.724c43.324 43.324 113.676 43.324 157 0l-157-156.836c-43.256 43.316-43.276 113.528 0 156.836zM511.916 1169.048v341.332c0 61.268 49.732 111 111 111s111-49.732 111-111v-341.332c0-221.524 179.472-401 401-401h512l22.332-2.32c50.56-10.344 88.668-55.056 88.668-108.68 0-53.608-38.108-98.32-88.668-108.664l-22.332-2.34h-512c-344.064 0-623 278.936-623 623zM3583.916 2022.384v682.672c0 221.528-179.472 401-401 401h-853.332c-61.268 0-111 49.732-111 111s49.732 111 111 111h853.332c344.064 0 623-278.936 623-623v-682.672c0-61.268-49.732-111-111-111s-111 49.732-111 111zM3694.916 1083.888c0 410.676-322.304 746.136-727.824 766.992l-39.508 1.008c-414.276 0.46-768.664-353.656-768.664-768 0-424.244 343.912-768 768-768 424.244 0 768 343.912 768 768zM3865.584 1083.888c0-518.332-420.148-938.668-938.668-938.668-518.332 0-938.668 420.148-938.668 938.668 0 508.568 430.696 939.008 939.332 938.496 518.16-0.376 938-420.352 938-938.496zM3268.248 1169.22c47.12 0 85.332-38.212 85.332-85.332s-38.212-85.332-85.332-85.332h-682.668c-47.12 0-85.332 38.212-85.332 85.332s38.212 85.332 85.332 85.332h682.668zM3838.756 1130.888c-23.672 466.584-397.568 840.668-864.172 864.664l-47 1.16c-494.472 0.496-913.664-418.388-913.664-912.828l1.16-47c24.472-482.524 423.408-865.996 911.836-865.996 504.372 0 913 408.816 913 913l-1.16 47zM3668.412 1120.888c-18.636 379.752-322.56 684.648-702.004 704.496l-39.32 0.836c-399.924 0.172-742.504-342.272-742.504-742.332l0.836-38.16c19.864-392.364 344.336-704.172 741.496-704.172 410.096 0 742.332 332.372 742.332 742.332l-0.836 37zM3327.916 1083.888c0 32.988-26.676 59.664-59.664 59.664h-682.668c-32.988 0-59.664-26.676-59.664-59.664s26.676-59.664 59.664-59.664h682.668c32.988 0 59.664 26.676 59.664 59.664zM3379.252 1083.888c0-61.268-49.732-111-111-111h-682.668c-61.268 0-111 49.732-111 111s49.732 111 111 111h682.668c61.268 0 111-49.732 111-111zM3719.424 1043.064c-21.264-419.26-367.82-752.844-792.508-752.844-424.532 0-771.244 333.448-792.508 752.844l-1.16 40.824c0 428.492 365.908 794.128 794.332 793.668h0.664l39.508-1.008 0.664-0.152 38.996-2.832c400.536-40.328 713.164-378.556 713.164-789.676l-1.16-40.824zM3889.92 1034.224c-25.856-509.388-447.012-914.672-963.004-914.672-515.804 0-937.148 405.096-963.004 914.672l-1.332 49.664c0 522.716 442.232 964.676 965 964.164l49.664-1.332c509.2-26.18 914.004-447.216 914.004-962.832l-1.332-49.664zM1099.252 3428.888c121.688 93.044 290.808 93.036 412.5 0l124.668-95.332 155.84-21 27.988-4.832c138.58-30.4 244.684-144.552 263.664-287l20.516-155 95.488-125 16.504-23.5c71.168-111.312 71.204-254.364 0-365.668l-16.504-23.332c-28.040-36.676-56.252-73.656-77.652-101.668-6.672-8.728-12.748-16.512-17.836-23.168l-20.668-155.66c-20.308-152.1-139.98-271.396-291.84-291.668l-155.164-20.496-125-95.676-0.168 0.172c-114.052-87.144-269.584-92.74-388.832-16.504l-23.5 16.504-124.836 95.504-155.5 20.668c-152.124 20.276-271.552 139.928-291.832 291.824l-20.668 155.504-95.332 124.668c-92.924 121.788-93.076 290.768 0 412.5l77.668 101.5c6.676 8.732 12.568 16.672 17.664 23.332l21 155.5 4.832 28.168c30.428 138.544 144.58 244.676 287 263.668l155.168 20.668 124.836 95.332zM1911.912 2317.056c0.292 0.368 0.872 0.72 1.332 1.336 1.604 2.080 3.908 5.276 7.016 9.332 6.212 8.116 15.156 19.716 25.82 33.668 21.248 27.788 49.748 65.14 77.672 101.668l10.496 16.5c18.124 34.316 18.14 75.524 0 109.836l-10.496 16.5-113.34 148.332c-8.788 11.512-15.24 24.6-18.996 38.5l-2.832 14.168-24.66 184.5c-7.048 52.86-48.384 94.288-101 101.332l-185.168 24.668c-19.152 2.572-37.32 10.26-52.668 22l-148.164 113.168c-36.876 28.184-86.308 31.808-126.336 10.668l-16.5-10.668-148.332-113.332-0.164 0.332c-9.448-7.22-19.892-13.252-31.5-17.168l-20.832-5-184.668-24.5c-46.288-6.172-83.828-38.68-97.168-82l-4.164-19.164-24.668-185c-3.66-27.368-17.396-50.908-36.668-68 0.844 0.684 1.684 1.068 2.168 1.5 3.9 3.632 6.748 6.86 7.168 7.332 1.56 1.752 2.856 3.16 3 3.336 0.66 0.804 1.14 1.464 1.164 1.5 0.188 0.236 0.292 0.324 0.168 0.168-0.276-0.356-0.848-1.104-1.668-2.164-1.6-2.080-4.072-5.124-7.168-9.168-6.204-8.1-15.028-19.752-25.668-33.668l-77.668-101.668c-32.192-42.104-32.344-100.608 0-143l113.332-148.332 8-12c7.168-12.472 11.92-26.316 13.832-40.668l24.5-184.5 4.164-19.164c13.368-43.468 50.92-75.86 97-82.004l185-24.832 14.164-2.832c13.908-3.736 26.984-10.188 38.5-18.996l148.164-113.34 16.5-10.496c40.016-21.164 89.452-17.664 126.336 10.496l148.5 113.34c14.892 11.384 32.684 19.2 52.5 21.828l184.66 24.66 19.164 4.18c43.436 13.364 75.844 50.792 82.004 96.82l24.832 185.172 4.828 20.832c4.232 12.504 10.48 24.032 18.5 34zM1922.92 2328.72c-4.044-3.768-6.928-7.228-7.168-7.5-0.392-0.44-0.836-0.784-1.16-1.168 3.208 3.724 6.808 7.080 10.496 10.332-0.888-0.712-1.672-1.22-2.168-1.668zM1945.088 2344.72l-0.172-0.164c0.172 0.096 0.324 0.236 0.496 0.332l-0.324-0.168z" />
<glyph unicode="&#xe911;" glyph-name="plus" horiz-adv-x="3968" d="M2019.328 2648.96c-16.324-6.748-30.112-16.716-41.112-29.192l-0.104-0.12-20.608-23.424v-706.688l-353.28-1.92c-345.088-1.792-353.792-2.176-371.584-15.488-31.872-23.808-43.392-44.8-43.392-78.976s11.52-55.168 43.392-78.976c17.792-13.312 26.496-13.696 371.584-15.488l353.28-1.792v-708.736l24.832-24.704c32.64-32.512 63.744-38.656 104.32-20.736 23.552 10.496 32.768 19.456 42.88 41.728 12.288 26.88 12.928 45.696 13.056 370.432l0.128 342.016 348.8 1.792c335.232 1.792 349.824 2.432 371.328 15.104 26.112 15.488 46.976 50.816 46.976 79.36 0 28.672-20.864 64-46.976 79.36-21.504 12.672-36.096 13.312-371.328 15.104l-348.8 1.92-0.128 342.016c-0.128 324.48-0.768 343.424-13.056 370.304-7.344 19.076-22.144 33.872-40.732 41.052l-0.484 0.164c-31.104 14.208-38.4 14.72-68.992 5.888z" />
<glyph unicode="&#xe912;" glyph-name="download" d="M2048 3285.332c70.692 0 128-57.308 128-128v-1738.82l634.828 634.828c49.988 49.988 131.020 49.988 181.008 0s49.988-131.036 0-181.028l-849.512-849.512c-22.836-24.868-55.364-40.688-91.58-41.436l-2.92-0.036c-33.964 0-66.508 13.484-90.52 37.496l-853.328 853.504c-49.984 49.988-49.976 131.036 0.016 181.028 49.992 49.972 131.036 49.972 181.020-0.016l634.984-635.12v1739.112c0 70.692 57.308 128 128 128zM3541.332 1109.332c0 70.692-57.308 128-128 128s-128-57.308-128-128v-341.332c0-117.896-95.436-213.332-213.332-213.332h-2048c-117.896 0-213.332 95.436-213.332 213.332v341.332c0 70.692-57.308 128-128 128s-128-57.308-128-128v-341.332c0-259.276 210.056-469.332 469.332-469.332h2048c259.276 0 469.332 210.056 469.332 469.332v341.332z" />
<glyph unicode="&#xe913;" glyph-name="payment" d="M2356.548 3228.288c174.268 142.168 431.36 132.124 593.836-30.332l537.652-537.832 30.516-33.664c132.676-162.668 132.692-397.508 0-560.176l-30.516-33.656-927.336-927.336-16.164-13.176c-39.732-26.196-93.68-21.812-128.664 13.176-39.988 39.988-39.988 104.84 0 144.828l927.336 927.336 16.504 18.164c71.388 87.56 71.372 213.936 0 301.5l-16.504 18.168-537.668 537.832c-93.288 93.284-244.532 93.252-337.836 0l-1048.16-1048.16c-93.252-93.304-93.284-244.548 0-337.836l417.172-417.008 13.16-16.164c26.196-39.732 21.796-93.696-13.16-128.664-35.004-35.004-89.088-39.44-128.836-13.176l-16.004 13.176-417.168 416.988c-173.264 173.276-173.228 454.228 0 627.508l1048.168 1048.168 33.672 30.332zM3413.332 1007c0 37.648-30.684 68.336-68.336 68.336h-2730.664c-37.656 0-68.332-30.684-68.332-68.336v-341.332c0-37.648 30.68-68.336 68.332-68.336h2730.664c37.648 0 68.336 30.684 68.336 68.336v341.332zM3617.996 665.668c0-150.768-122.232-273-273-273h-2730.664c-150.76 0-273 122.232-273 273v341.332c0 150.768 122.24 273 273 273h2730.664c150.768 0 273-122.232 273-273v-341.332zM1297 3328l20.668-2c46.652-9.556 81.668-50.856 81.668-100.332s-35.016-90.776-81.668-100.332l-20.668-2h-853.332c-56.552 0-102.332 45.78-102.332 102.332s45.78 102.332 102.332 102.332h853.332zM955.668 2816l20.668-2c46.652-9.556 81.668-50.856 81.668-100.332s-35.016-90.776-81.668-100.332l-20.668-2h-512c-56.552 0-102.332 45.78-102.332 102.332s45.78 102.332 102.332 102.332h512zM614.332 2304l20.668-2c46.652-9.556 81.668-50.856 81.668-100.332s-35.016-90.776-81.668-100.332l-20.668-1.996h-170.668c-56.552 0-102.332 45.776-102.332 102.332s45.78 102.332 102.332 102.332h170.668zM2962.652 3070.528c39.748 26.272 93.816 21.836 128.82-13.168 39.92-39.976 39.92-104.692 0-144.668l-1530.992-1530.992-16-13.004c-39.728-26.248-93.668-21.948-128.668 13.004-39.988 39.988-39.988 104.84 0 144.828l1530.832 1530.832 16.008 13.168z" />
<glyph unicode="&#xe914;" glyph-name="payment_history" d="M3414.664 656.044v1365.828c0 127.316-103.184 230.484-230.504 230.5h-2390.328c-127.324 0-230.5-103.176-230.5-230.5v-170.668c0-61.268-49.732-111-111-111s-111 49.732-111 111v170.668c0 249.86 202.64 452.5 452.5 452.5h2390.328c249.856-0.016 452.336-202.652 452.336-452.5v-1365.828c0-249.856-202.48-452.488-452.336-452.504h-853.656c-61.268 0-111 49.732-111 111 0 61.252 49.732 110.832 111 110.832h853.656c127.316 0.016 230.504 103.356 230.504 230.672zM1877.164 944.76c-8.072 162.44-76.1 316.604-191.664 432.164-123.28 123.272-290.488 192.496-464.836 192.496-363.064 0-657.332-294.264-657.332-657.324 0.008-363.060 294.272-657.34 657.332-657.34 351.708 0 638.884 276.172 656.496 623.496l0.836 33.844-0.836 32.664zM2098.84 866.92c-23.516-464.604-407.736-833.996-878.176-833.996-485.592 0-879.324 393.576-879.332 879.172 0 485.596 393.736 879.324 879.332 879.324 233.188 0 456.78-92.776 621.664-257.672 164.88-164.88 257.5-388.472 257.5-621.652l-0.988-45.176zM3098.844 2986.452l22.34-2.168c50.5-10.356 88.472-55.088 88.492-108.664 0-53.588-37.972-98.3-88.492-108.668l-22.34-2.332h-2219.668c-61.264 0-111 49.732-111 111 0.020 61.252 49.744 110.832 111 110.832h2219.668zM2927.992 3498.668l22.324-2.168c50.584-10.312 88.66-55.048 88.68-108.664 0-53.628-38.092-98.344-88.68-108.668l-22.324-2.332h-1707.336c-61.268 0-111 49.732-111 111 0.020 61.252 49.744 110.832 111 110.832h1707.336zM1058.26 1184.256c0 61.268 49.732 111 111 111s111-49.732 111-111v-212.668h212.5l22.332-2.168c50.572-10.308 88.644-55.056 88.668-108.664 0-53.624-38.088-98.34-88.668-108.664l-22.332-2.34h-323.5c-61.264 0-111 49.732-111 111v323.5z" />
<glyph unicode="&#xe915;" glyph-name="tg" d="M3201.64 2995.816c-18.296-3.304-33.2-6.784-47.836-10.9l3.6 0.864c-48.744-13.108-2682.060-1030.552-2710.732-1047.144-60.332-39.008-102.932-101.028-115.492-173.356l-0.22-1.544c-5.324-37.068 6.348-100.556 25.396-138.036 19.66-38.708 61.644-81.304 98.1-99.532 17.816-8.808 173.464-60.008 346.112-113.868 172.648-53.656 314.776-98.508 315.596-99.736 1.024-1.024 50.176-161.588 109.364-356.76 58.984-195.38 113.46-367.208 121.036-381.952 49.356-97.688 171.212-160.152 275.456-140.904 76.392 14.132 103.424 33.384 257.228 182.68 79.052 76.596 147.252 137.832 151.96 136.192 4.504-1.844 133.736-96.052 287.336-209.512 153.396-113.46 295.32-214.016 315.188-223.232 36.62-16.964 79.48-26.856 124.652-26.856 83.612 0 159.304 33.9 214.088 88.708v0c70.86 70.86 54.272 5.736 307.816 1200.128-62.976-411.428 17.988-36.056 97.168 339.972l136.1 772.296c2.048 17.204 0 49.356-4.504 71.68-24.528 116.096-115.348 205.68-230.192 228.052l-1.844 0.3c-12.888 3.58-27.688 5.64-42.968 5.64-11.464 0-22.656-1.16-33.468-3.364l1.072 0.184zM3201.432 2660.76l-222.004-1046.324c-118.988-561.152-217.088-1021.544-218.112-1022.568-1.64-1.844-261.12 188.62-607.436 445.44 193.728-136.304 127.604-87.028 61.412-37.836l-264.576 187.952c-55.296 40.96-100.76 76.392-100.76 78.644 0 2.456 149.096 138.856 331.16 303.308 182.068 164.248 338.74 308.632 347.956 320.716 17.2 24.764 27.48 55.468 27.48 88.568 0 10.616-1.056 20.988-3.072 31.012l0.168-1c-23.756 88.064-122.264 140.084-200.088 105.676-21.3-9.42-129.64-102.4-340.788-292.66-408.78-368.436-417.384-376.628-444.416-431.72-21.096-42.6-22.12-48.536-22.12-123.496 0-71.476 1.64-82.328 18.636-118.58 27.852-59.392 52.224-86.016 134.964-147.864 41.368-30.72 75.16-57.96 75.16-60.416 0-11.264-171.008-174.080-176.332-167.936-3.072 3.48-52.428 161.792-109.364 351.232-56.936 189.644-111.616 361.064-121.448 380.928-10.072 22.724-26.568 41.068-47.18 53.16l-0.54 0.292c-16.18 9.624-146.84 53.864-289.996 98.508-151.468 44.388-239.296 73.228-326.508 103.388l62.52-18.804c-2.048 1.844 2.252 5.736 9.42 8.396l2430.568 937.368c0.408 0-1.64-11.468-4.712-25.396z" />
<glyph unicode="" glyph-name="tg" d="M3201.64 2995.816c-18.296-3.304-33.2-6.784-47.836-10.9l3.6 0.864c-48.744-13.108-2682.060-1030.552-2710.732-1047.144-60.332-39.008-102.932-101.028-115.492-173.356l-0.22-1.544c-5.324-37.068 6.348-100.556 25.396-138.036 19.66-38.708 61.644-81.304 98.1-99.532 17.816-8.808 173.464-60.008 346.112-113.868 172.648-53.656 314.776-98.508 315.596-99.736 1.024-1.024 50.176-161.588 109.364-356.76 58.984-195.38 113.46-367.208 121.036-381.952 49.356-97.688 171.212-160.152 275.456-140.904 76.392 14.132 103.424 33.384 257.228 182.68 79.052 76.596 147.252 137.832 151.96 136.192 4.504-1.844 133.736-96.052 287.336-209.512 153.396-113.46 295.32-214.016 315.188-223.232 36.62-16.964 79.48-26.856 124.652-26.856 83.612 0 159.304 33.9 214.088 88.708v0c70.86 70.86 54.272 5.736 307.816 1200.128-62.976-411.428 17.988-36.056 97.168 339.972l136.1 772.296c2.048 17.204 0 49.356-4.504 71.68-24.528 116.096-115.348 205.68-230.192 228.052l-1.844 0.3c-12.888 3.58-27.688 5.64-42.968 5.64-11.464 0-22.656-1.16-33.468-3.364l1.072 0.184zM3201.432 2660.76l-222.004-1046.324c-118.988-561.152-217.088-1021.544-218.112-1022.568-1.64-1.844-261.12 188.62-607.436 445.44 193.728-136.304 127.604-87.028 61.412-37.836l-264.576 187.952c-55.296 40.96-100.76 76.392-100.76 78.644 0 2.456 149.096 138.856 331.16 303.308 182.068 164.248 338.74 308.632 347.956 320.716 17.2 24.764 27.48 55.468 27.48 88.568 0 10.616-1.056 20.988-3.072 31.012l0.168-1c-23.756 88.064-122.264 140.084-200.088 105.676-21.3-9.42-129.64-102.4-340.788-292.66-408.78-368.436-417.384-376.628-444.416-431.72-21.096-42.6-22.12-48.536-22.12-123.496 0-71.476 1.64-82.328 18.636-118.58 27.852-59.392 52.224-86.016 134.964-147.864 41.368-30.72 75.16-57.96 75.16-60.416 0-11.264-171.008-174.080-176.332-167.936-3.072 3.48-52.428 161.792-109.364 351.232-56.936 189.644-111.616 361.064-121.448 380.928-10.072 22.724-26.568 41.068-47.18 53.16l-0.54 0.292c-16.18 9.624-146.84 53.864-289.996 98.508-151.468 44.388-239.296 73.228-326.508 103.388l62.52-18.804c-2.048 1.844 2.252 5.736 9.42 8.396l2430.568 937.368c0.408 0-1.64-11.468-4.712-25.396z" />
<glyph unicode="warning" glyph-name="warning" d="M2047.984 3269.668c-136.516 0-301.688-93.676-441.028-344.952l-501.868-901.324-532.368-958.94c-129.792-234.088-124.24-418.732-54.676-537.24 69.492-118.392 227.704-213.060 495.692-213.060h1034.248c7.132 0 14.132-0.58 20.94-1.708h1013.3c266.992 0 425.352 94.6 495.104 213.164 69.768 118.612 75.604 303.224-54.1 537.14l-1034.24 1861.972c-139.332 251.276-304.504 344.952-441.004 344.952zM2027.024 58.148h-1013.292c-324.224 0-585.856 116.956-716.468 339.472-130.544 222.396-105.368 507.94 51.564 790.972l0.032 0.052 532.56 959.296 501.712 901.036c164.448 296.496 400.316 476.692 664.848 476.692 264.516 0 500.396-180.2 664.832-476.7l0.068-0.108 1034.24-1861.976c157.012-283.204 181.624-568.78 50.86-791.076-130.78-222.344-392.26-339.372-715.76-339.372h-1034.24c-7.152 0-14.148 0.58-20.956 1.708zM2047.964 2432.124c70.692 0 128-57.308 128-128v-853.34c0-70.692-57.308-128-128-128s-128 57.308-128 128v853.34c0 70.692 57.308 128 128 128zM2047.028 1109.452c-94.26 0-170.668-76.408-170.668-170.668s76.408-170.668 170.668-170.668h1.536c94.26 0 170.668 76.408 170.668 170.668s-76.408 170.668-170.668 170.668h-1.536z" />
<glyph unicode="tg" glyph-name="tg" d="M3201.64 2995.816c-18.296-3.304-33.2-6.784-47.836-10.9l3.6 0.864c-48.744-13.108-2682.060-1030.552-2710.732-1047.144-60.332-39.008-102.932-101.028-115.492-173.356l-0.22-1.544c-5.324-37.068 6.348-100.556 25.396-138.036 19.66-38.708 61.644-81.304 98.1-99.532 17.816-8.808 173.464-60.008 346.112-113.868 172.648-53.656 314.776-98.508 315.596-99.736 1.024-1.024 50.176-161.588 109.364-356.76 58.984-195.38 113.46-367.208 121.036-381.952 49.356-97.688 171.212-160.152 275.456-140.904 76.392 14.132 103.424 33.384 257.228 182.68 79.052 76.596 147.252 137.832 151.96 136.192 4.504-1.844 133.736-96.052 287.336-209.512 153.396-113.46 295.32-214.016 315.188-223.232 36.62-16.964 79.48-26.856 124.652-26.856 83.612 0 159.304 33.9 214.088 88.708v0c70.86 70.86 54.272 5.736 307.816 1200.128-62.976-411.428 17.988-36.056 97.168 339.972l136.1 772.296c2.048 17.204 0 49.356-4.504 71.68-24.528 116.096-115.348 205.68-230.192 228.052l-1.844 0.3c-12.888 3.58-27.688 5.64-42.968 5.64-11.464 0-22.656-1.16-33.468-3.364l1.072 0.184zM3201.432 2660.76l-222.004-1046.324c-118.988-561.152-217.088-1021.544-218.112-1022.568-1.64-1.844-261.12 188.62-607.436 445.44 193.728-136.304 127.604-87.028 61.412-37.836l-264.576 187.952c-55.296 40.96-100.76 76.392-100.76 78.644 0 2.456 149.096 138.856 331.16 303.308 182.068 164.248 338.74 308.632 347.956 320.716 17.2 24.764 27.48 55.468 27.48 88.568 0 10.616-1.056 20.988-3.072 31.012l0.168-1c-23.756 88.064-122.264 140.084-200.088 105.676-21.3-9.42-129.64-102.4-340.788-292.66-408.78-368.436-417.384-376.628-444.416-431.72-21.096-42.6-22.12-48.536-22.12-123.496 0-71.476 1.64-82.328 18.636-118.58 27.852-59.392 52.224-86.016 134.964-147.864 41.368-30.72 75.16-57.96 75.16-60.416 0-11.264-171.008-174.080-176.332-167.936-3.072 3.48-52.428 161.792-109.364 351.232-56.936 189.644-111.616 361.064-121.448 380.928-10.072 22.724-26.568 41.068-47.18 53.16l-0.54 0.292c-16.18 9.624-146.84 53.864-289.996 98.508-151.468 44.388-239.296 73.228-326.508 103.388l62.52-18.804c-2.048 1.844 2.252 5.736 9.42 8.396l2430.568 937.368c0.408 0-1.64-11.468-4.712-25.396z" />
<glyph unicode="support" glyph-name="support" d="M1947.136 3449.856c-240.16-14.352-462.34-78.408-660.628-181.956l9.024 4.292c-323.244-163.5-572.588-415.744-735.572-743.936-109.128-215.276-173.048-469.36-173.048-738.372 0-95.936 8.128-189.972 23.736-281.46l-1.388 9.824c18.092-112.128 65.364-274.772 97.792-335.872 26.284-49.664 84.14-103.424 139.776-129.364 65.708-30.892 121.172-32.084 266.068-5.972 134.144 24.236 158.208 32.256 221.524 73.9 92.844 60.756 156.672 168.448 166.74 281.428 4.948 55.124-51.2 457.216-72.020 516.436-48.812 139.092-173.396 234.496-329.388 252.076-26.452 2.9-66.388-0.34-125.268-10.24-47.444-8.020-87.724-13.14-89.6-11.264-6.656 6.484 53.932 173.74 90.624 250.196 121.048 248.688 304.008 451.044 529.248 592.144l5.96 3.484c244.396 150.7 554.836 226.132 838.316 203.948 345.6-27.308 653.652-168.448 895.66-410.452 119.468-119.468 203.092-237.396 275.796-389.12 37.204-77.484 97.108-243.712 90.452-250.54-1.876-1.876-42.324 3.244-89.772 11.436-91.648 15.532-131.584 14.676-201.388-4.268-122.708-33.62-231.424-143.7-261.632-265.216-5.632-22.528-23.38-134.316-39.424-248.32-27.476-194.9-28.672-210.604-21.164-262.656 15.188-103.596 76.972-201.9 163.328-259.244 55.636-36.864 104.108-53.76 201.556-70.144 40.448-6.828 73.388-14.508 73.388-17.068s-11.264-21.164-25.088-41.3c-114.86-161.716-256.372-296.216-419.424-399.864l-6.048-3.592c-128-79.020-304.98-148.48-455.852-179.2-51.216-9.896-114.868-18.368-179.468-23.488l-6.388-0.408c-141.996-10.068-146.772-11.092-175.276-36.012-26.868-22.78-43.808-56.56-43.808-94.3 0-24.324 7.040-47.004 19.192-66.116l-0.296 0.5c30.036-46.592 55.98-56.66 145.068-56.66 342.016 0 718.336 137.216 1004.032 366.252 262.144 210.092 467.968 523.776 557.056 848.724 38.22 132.652 60.204 285.020 60.204 442.524 0 274.704-66.868 533.788-185.212 761.864l4.348-9.212c-163.5 323.072-416.596 573.612-744.62 736.768-214.304 109.064-467.344 172.96-735.304 172.96-35.82 0-71.372-1.14-106.624-3.392l4.812 0.244zM943.444 1897.3c16.316-11.988 29.868-26.684 40.24-43.54l0.38-0.664c15.36-29.696 69.46-391.852 65.024-435.028-6.276-42.156-32.072-77.196-67.732-96.088l-0.704-0.34c-26.624-12.628-169.472-41.812-211.456-43.18-12.212 0.036-23.316 4.768-31.6 12.484l0.028-0.024c-25.428 26.624-73.388 202.58-88.064 323.584-11.264 92.16-16.556 233.644-9.388 252.416 5.972 15.7 14.164 18.432 104.62 35.5 122.196 22.7 160.428 21.844 198.656-5.12zM3344.556 1902.592c102.228-18.092 105.472-19.116 110.252-36.864 7.168-26.796-4.78-237.568-17.58-309.248-20.82-117.248-58.54-244.224-78.848-265.556-8.412-7.724-19.676-12.46-32.048-12.46-0.132 0-0.264 0-0.4 0h0.020c-42.324 1.196-183.636 30.38-211.796 43.692-37.576 19.088-63.704 55.952-67.384 99.216l-0.032 0.452c-1.536 17.748 9.556 118.272 24.916 223.404 31.232 215.212 36.352 229.548 95.232 260.608 37.376 19.796 47.788 19.628 177.664-3.244zM1737.388 1820.5c-28.812-11.652-50.9-34.8-60.876-63.6l-0.224-0.74c-37.716-89.94 28.672-181.42 126.464-174.42 69.292 4.948 115.54 57.004 115.54 129.708 0 42.496-14.508 70.144-51.372 98.132-32.94 25.26-89.26 29.868-129.536 10.924zM2249.216 1823.404c-70.316-30.548-94.72-133.46-46.080-194.048 23.328-29.728 59.256-48.648 99.604-48.648 43.388 0 81.668 21.88 104.404 55.208l0.28 0.436c16.212 23.552 19.456 35.156 19.456 70.316 0 34.304-3.412 47.104-18.772 70.316-24.416 34.212-63.976 56.252-108.684 56.252-18.1 0-35.356-3.612-51.088-10.156l0.88 0.324z" />
<glyph unicode="plus" glyph-name="plus" horiz-adv-x="3968" d="M2019.328 2648.96c-16.324-6.748-30.112-16.716-41.112-29.192l-0.104-0.12-20.608-23.424v-706.688l-353.28-1.92c-345.088-1.792-353.792-2.176-371.584-15.488-31.872-23.808-43.392-44.8-43.392-78.976s11.52-55.168 43.392-78.976c17.792-13.312 26.496-13.696 371.584-15.488l353.28-1.792v-708.736l24.832-24.704c32.64-32.512 63.744-38.656 104.32-20.736 23.552 10.496 32.768 19.456 42.88 41.728 12.288 26.88 12.928 45.696 13.056 370.432l0.128 342.016 348.8 1.792c335.232 1.792 349.824 2.432 371.328 15.104 26.112 15.488 46.976 50.816 46.976 79.36 0 28.672-20.864 64-46.976 79.36-21.504 12.672-36.096 13.312-371.328 15.104l-348.8 1.92-0.128 342.016c-0.128 324.48-0.768 343.424-13.056 370.304-7.344 19.076-22.144 33.872-40.732 41.052l-0.484 0.164c-31.104 14.208-38.4 14.72-68.992 5.888z" />
<glyph unicode="payment_history" glyph-name="payment_history" d="M3414.664 656.044v1365.828c0 127.316-103.184 230.484-230.504 230.5h-2390.328c-127.324 0-230.5-103.176-230.5-230.5v-170.668c0-61.268-49.732-111-111-111s-111 49.732-111 111v170.668c0 249.86 202.64 452.5 452.5 452.5h2390.328c249.856-0.016 452.336-202.652 452.336-452.5v-1365.828c0-249.856-202.48-452.488-452.336-452.504h-853.656c-61.268 0-111 49.732-111 111 0 61.252 49.732 110.832 111 110.832h853.656c127.316 0.016 230.504 103.356 230.504 230.672zM1877.164 944.76c-8.072 162.44-76.1 316.604-191.664 432.164-123.28 123.272-290.488 192.496-464.836 192.496-363.064 0-657.332-294.264-657.332-657.324 0.008-363.060 294.272-657.34 657.332-657.34 351.708 0 638.884 276.172 656.496 623.496l0.836 33.844-0.836 32.664zM2098.84 866.92c-23.516-464.604-407.736-833.996-878.176-833.996-485.592 0-879.324 393.576-879.332 879.172 0 485.596 393.736 879.324 879.332 879.324 233.188 0 456.78-92.776 621.664-257.672 164.88-164.88 257.5-388.472 257.5-621.652l-0.988-45.176zM3098.844 2986.452l22.34-2.168c50.5-10.356 88.472-55.088 88.492-108.664 0-53.588-37.972-98.3-88.492-108.668l-22.34-2.332h-2219.668c-61.264 0-111 49.732-111 111 0.020 61.252 49.744 110.832 111 110.832h2219.668zM2927.992 3498.668l22.324-2.168c50.584-10.312 88.66-55.048 88.68-108.664 0-53.628-38.092-98.344-88.68-108.668l-22.324-2.332h-1707.336c-61.268 0-111 49.732-111 111 0.020 61.252 49.744 110.832 111 110.832h1707.336zM1058.26 1184.256c0 61.268 49.732 111 111 111s111-49.732 111-111v-212.668h212.5l22.332-2.168c50.572-10.308 88.644-55.056 88.668-108.664 0-53.624-38.088-98.34-88.668-108.664l-22.332-2.34h-323.5c-61.264 0-111 49.732-111 111v323.5z" />
<glyph unicode="payment" glyph-name="payment" d="M2356.548 3228.288c174.268 142.168 431.36 132.124 593.836-30.332l537.652-537.832 30.516-33.664c132.676-162.668 132.692-397.508 0-560.176l-30.516-33.656-927.336-927.336-16.164-13.176c-39.732-26.196-93.68-21.812-128.664 13.176-39.988 39.988-39.988 104.84 0 144.828l927.336 927.336 16.504 18.164c71.388 87.56 71.372 213.936 0 301.5l-16.504 18.168-537.668 537.832c-93.288 93.284-244.532 93.252-337.836 0l-1048.16-1048.16c-93.252-93.304-93.284-244.548 0-337.836l417.172-417.008 13.16-16.164c26.196-39.732 21.796-93.696-13.16-128.664-35.004-35.004-89.088-39.44-128.836-13.176l-16.004 13.176-417.168 416.988c-173.264 173.276-173.228 454.228 0 627.508l1048.168 1048.168 33.672 30.332zM3413.332 1007c0 37.648-30.684 68.336-68.336 68.336h-2730.664c-37.656 0-68.332-30.684-68.332-68.336v-341.332c0-37.648 30.68-68.336 68.332-68.336h2730.664c37.648 0 68.336 30.684 68.336 68.336v341.332zM3617.996 665.668c0-150.768-122.232-273-273-273h-2730.664c-150.76 0-273 122.232-273 273v341.332c0 150.768 122.24 273 273 273h2730.664c150.768 0 273-122.232 273-273v-341.332zM1297 3328l20.668-2c46.652-9.556 81.668-50.856 81.668-100.332s-35.016-90.776-81.668-100.332l-20.668-2h-853.332c-56.552 0-102.332 45.78-102.332 102.332s45.78 102.332 102.332 102.332h853.332zM955.668 2816l20.668-2c46.652-9.556 81.668-50.856 81.668-100.332s-35.016-90.776-81.668-100.332l-20.668-2h-512c-56.552 0-102.332 45.78-102.332 102.332s45.78 102.332 102.332 102.332h512zM614.332 2304l20.668-2c46.652-9.556 81.668-50.856 81.668-100.332s-35.016-90.776-81.668-100.332l-20.668-1.996h-170.668c-56.552 0-102.332 45.776-102.332 102.332s45.78 102.332 102.332 102.332h170.668zM2962.652 3070.528c39.748 26.272 93.816 21.836 128.82-13.168 39.92-39.976 39.92-104.692 0-144.668l-1530.992-1530.992-16-13.004c-39.728-26.248-93.668-21.948-128.668 13.004-39.988 39.988-39.988 104.84 0 144.828l1530.832 1530.832 16.008 13.168z" />
<glyph unicode="paperclip" glyph-name="paperclip" horiz-adv-x="4268" d="M1496.636 2944.068c515.916 515.908 1354.708 515.908 1870.616 0s515.908-1354.72 0-1870.628l-663.892-663.892c-283.8-283.784-742.008-283.784-1025.816 0-283.8 283.8-283.8 742.024 0 1025.828l421.552 421.548c49.972 49.988 131.020 49.988 181.008 0s49.988-131.036 0-181.028l-421.548-421.548c-183.824-183.824-183.824-479.948 0-663.772s479.964-183.824 663.792 0l663.892 663.892c415.932 415.932 415.932 1092.648 0 1508.584s-1092.66 415.932-1508.588 0l-723.628-723.636c-349.268-349.252-349.544-916.888 0.192-1268.12 49.88-50.092 49.708-131.14-0.384-181.028-50.096-49.868-131.14-49.7-181.020 0.392-448.984 450.9-449.26 1180.332 0.192 1629.784l723.628 723.628z" />
<glyph unicode="minus" glyph-name="minus" d="M1252.48 1880.32c-74.112-21.632-85.888-124.544-19.2-168.192 17.92-11.648 61.44-12.288 880.512-12.288 860.8 0 861.696 0 880.896 14.080 24.844 17.428 40.888 45.944 40.888 78.204 0 33.4-17.192 62.78-43.212 79.78l-0.364 0.224c-17.28 11.264-68.864 12.16-868.608 13.184-481.408 0.64-859.264-1.536-870.912-4.992z" />
<glyph unicode="logo" glyph-name="logo" horiz-adv-x="10924" d="M1576.96 3840h881.596v-1956.192c0-359.38-94.288-652.060-282.864-878.044-108.432-130.264-246.716-233.836-414.868-310.74-166.572-76.892-337.864-115.348-513.864-115.348-350.436 0-645.872 117.704-886.308 353.108-240.436 235.396-360.652 524.164-360.652 866.28 0 331.128 119.432 617.54 358.296 859.216s521.724 362.52 848.592 362.52c51.86 0 130.436-4.708 235.712-14.124v-969.86c-72.284 56.504-144.568 84.752-216.86 84.752-91.14 0-169.716-33.748-235.716-101.228-64.432-65.912-96.644-145.956-96.644-240.104 0-91.032 33.788-169.496 101.36-235.408 67.572-64.34 148.5-96.516 242.788-96.516 226.292 0 339.432 156.148 339.432 468.456v1923.232zM4040.236 3023.156c333.152 0 618.372-120.056 855.664-360.164 238.852-238.548 358.288-524.948 358.288-859.228 0-338.98-121.004-627.736-363.008-866.268-240.436-238.548-531.148-357.82-872.164-357.82-341.004 0-632.512 119.272-874.52 357.82-242.004 240.104-363.008 528.86-363.008 866.268 0 343.688 121.004 632.456 363.008 866.28 242.004 235.408 540.58 353.108 895.74 353.108zM4016.664 2154.52c-94.288 0-174.432-34.52-240.436-103.572-66.004-67.48-99-150.664-99-249.528 0-97.304 32.996-180.476 99-249.528 67.572-69.052 147.716-103.584 240.436-103.584 94.288 0 174.432 34.532 240.436 103.584 67.572 69.052 101.364 152.224 101.364 249.528 0 98.86-33.008 182.044-99.008 249.528-66.004 69.052-146.932 103.572-242.792 103.572zM7250.148-256v1925.588c0 312.308-113.924 468.456-341.788 468.456-92.716 0-172.864-32.96-240.436-98.872-67.572-64.34-101.352-142.812-101.352-235.408 0-92.58 32.212-172.624 96.644-240.104 66.004-67.48 144.568-101.228 235.712-101.228 70.724 0 143.008 29.036 216.86 87.108v-969.864c-103.708-10.98-182.284-16.476-235.712-16.476-326.86 0-609.724 120.844-848.588 362.52s-358.296 528.872-358.296 861.572c0 342.12 120.216 630.876 360.652 866.28s535.872 353.104 886.308 353.104c176.004 0 347.296-38.448 513.864-115.348 168.152-76.896 306.436-180.476 414.868-310.736 188.576-225.984 282.864-518.668 282.864-878.044v-1958.548h-881.596zM9904.356 1493.036v-911.008c-72.284-12.548-138.284-18.832-198.008-18.832-353.576 0-648.228 116.132-883.94 348.4-235.724 232.256-353.588 523.376-353.588 873.336 0 340.548 118.648 629.316 355.944 866.28 238.864 236.976 528.792 355.46 869.796 355.46 380.304 0 679.664-111.424 898.092-334.276 220.012-221.276 330.012-524.164 330.012-908.652v-1151.112h-881.596v1087.556c0 123.984-30.64 222.844-91.932 296.608-59.712 73.764-140.64 110.636-242.792 110.636-92.708 0-172.852-33.736-240.436-101.216-67.572-67.48-101.352-147.524-101.352-240.116 0-97.304 30.64-177.336 91.932-240.104 61.28-62.784 139.072-94.164 233.36-94.164 77.004 0 148.504 20.4 214.504 61.2z" />
<glyph unicode="ittest-logo" glyph-name="ittest-logo" horiz-adv-x="17408" d="M7012.796 2947.88v-2094.544h-568.628v2094.544h568.628zM7225.020 2489.696v458.18h1820.452v-458.18h-630v-1636.364h-560.452v1636.364h-630zM9775.956 2489.696v458.18h1820.452v-458.18h-630v-1636.364h-560.452v1636.364h-630zM11810.424 853.332v2094.544h1509.548v-458.18h-940.92v-360h863.18v-458.188h-863.18v-359.988h936.824v-458.188h-1505.452zM14731.076 2293.332c-5.46 68.18-31.028 121.364-76.716 159.548-44.988 38.18-113.512 57.272-205.568 57.272-58.64 0-106.7-7.16-144.196-21.476-36.828-13.636-64.104-32.388-81.816-56.252-17.732-23.864-26.932-51.136-27.612-81.82-1.364-25.228 3.056-48.068 13.296-68.524 10.904-19.772 27.956-37.84 51.132-54.204 23.176-15.684 52.84-30 88.984-42.956 36.132-12.952 79.088-24.544 128.852-34.772l171.828-36.82c115.9-24.54 215.108-56.936 297.608-97.16s150-87.604 202.496-142.148c52.496-53.864 91.032-114.552 115.576-182.052 25.224-67.5 38.18-141.14 38.86-220.912-0.684-137.728-35.124-254.312-103.304-349.78-68.18-95.452-165.684-168.056-292.488-217.84-126.14-49.768-277.844-74.648-455.116-74.648-182.052 0-340.908 26.932-476.588 80.792-134.996 53.864-240.008 136.704-315 248.524-74.324 112.504-111.82 256.36-112.504 431.58h539.988c3.412-64.084 19.44-117.948 48.076-161.588s68.864-76.696 120.68-99.208c52.496-22.492 114.892-33.74 187.172-33.74 60.672 0 111.464 7.492 152.372 22.492s71.936 35.804 93.080 62.396c21.128 26.588 32.036 56.916 32.716 91.016-0.684 32.052-11.248 60.008-31.692 83.864-19.78 24.54-52.516 46.352-98.184 65.452-45.688 19.78-107.384 38.18-185.124 55.228l-208.64 45.004c-185.448 40.228-331.692 107.384-438.748 201.472-106.36 94.772-159.196 223.976-158.516 387.616-0.684 132.956 34.764 249.204 106.36 348.752 72.276 100.228 172.168 178.296 299.656 234.204 128.188 55.908 275.116 83.864 440.796 83.864 169.096 0 315.34-28.296 438.748-84.888s218.52-136.364 285.336-239.32c67.516-102.272 101.596-221.932 102.28-358.976h-544.084zM15462.828 2489.696v458.18h1820.416v-458.18h-629.964v-1636.364h-560.452v1636.364h-630zM2054.828 3754.668h1863.476v-841.128h-0.24v-3084.1h-838.572v1028.012h-1024.664v841.132h1024.664v1214.96h-1024.664v841.128zM4943.752 1698.576h-1024.92v-841.132h1024.92v841.132zM1030.168 670.532v1215.012h-1024.668v841.124h1024.668v1028h838.564v-3084.136h-838.564zM2879.728 2726.668h-1010.228v-825.68h1010.228v825.68zM2893.636 670.5v-841.132h-1863.472v841.132h1863.472zM844.064 3754.668h-838.564v-841.128h838.564v841.128zM844.064 1698.576h-838.564v-1869.176h838.564v1869.176z" />
<glyph unicode="download" glyph-name="download" d="M2048 3285.332c70.692 0 128-57.308 128-128v-1738.82l634.828 634.828c49.988 49.988 131.020 49.988 181.008 0s49.988-131.036 0-181.028l-849.512-849.512c-22.836-24.868-55.364-40.688-91.58-41.436l-2.92-0.036c-33.964 0-66.508 13.484-90.52 37.496l-853.328 853.504c-49.984 49.988-49.976 131.036 0.016 181.028 49.992 49.972 131.036 49.972 181.020-0.016l634.984-635.12v1739.112c0 70.692 57.308 128 128 128zM3541.332 1109.332c0 70.692-57.308 128-128 128s-128-57.308-128-128v-341.332c0-117.896-95.436-213.332-213.332-213.332h-2048c-117.896 0-213.332 95.436-213.332 213.332v341.332c0 70.692-57.308 128-128 128s-128-57.308-128-128v-341.332c0-259.276 210.056-469.332 469.332-469.332h2048c259.276 0 469.332 210.056 469.332 469.332v341.332z" />
<glyph unicode="document" glyph-name="document" d="M2261.332 3370.668h-725.332c-414.044 0-670.576-83.592-826.824-239.844s-239.844-412.78-239.844-826.824v-1024c0-414.036 83.592-670.568 239.844-826.828 156.252-156.244 412.784-239.836 826.824-239.836h1024c414.036 0 670.584 83.592 826.828 239.836 156.244 156.264 239.836 412.792 239.836 826.828v725.332h-554.668c-263.084 0-479.216 42.188-623.836 186.824-144.624 144.628-186.828 360.752-186.828 623.844v554.668zM3445.656 2261.332l-928.324 928.316v-373.648c0-248.908 43.144-374.116 111.836-442.824 68.712-68.708 193.928-111.844 442.828-111.844h373.656zM3882.668 2132.344v-852.344c0-439.296-87.076-780.1-314.828-1007.836-227.736-227.756-568.54-314.828-1007.836-314.828h-1024c-439.292 0-780.096 87.076-1007.844 314.828-227.748 227.736-314.824 568.54-314.824 1007.836v1024c0 439.292 87.076 780.092 314.824 1007.844s568.552 314.824 1007.844 314.824h853.332c10.836 0 21.54-1.376 31.864-4.028 22.016-5.656 42.308-17.12 58.64-33.46-16.556 16.564-36.9 27.876-58.64 33.46zM3882.512 2139.852c0.104-2.164 0.152-4.34 0.152-6.52v-0.988z" />
<glyph unicode="deactivating_licenses" glyph-name="deactivating_licenses" d="M1510.064 2759.72c43.044 28.452 101.576 23.704 139.5-14.164 43.324-43.324 43.324-113.68 0-157l-331.832-331.832c-20.804-20.804-49.080-32.5-78.5-32.5-22.068 0-43.408 6.6-61.5 18.664l-17 13.836-199.168 199.168 78.5 78.332 78.5 78.5 120.668-120.668 253.5 253.5 17.332 14.164zM961.56 2612.724c43.324 43.324 113.676 43.324 157 0l-157-156.836c-43.256 43.316-43.276 113.528 0 156.836zM511.916 1169.048v341.332c0 61.268 49.732 111 111 111s111-49.732 111-111v-341.332c0-221.524 179.472-401 401-401h512l22.332-2.32c50.56-10.344 88.668-55.056 88.668-108.68 0-53.608-38.108-98.32-88.668-108.664l-22.332-2.34h-512c-344.064 0-623 278.936-623 623zM3583.916 2022.384v682.672c0 221.528-179.472 401-401 401h-853.332c-61.268 0-111 49.732-111 111s49.732 111 111 111h853.332c344.064 0 623-278.936 623-623v-682.672c0-61.268-49.732-111-111-111s-111 49.732-111 111zM3694.916 1083.888c0 410.676-322.304 746.136-727.824 766.992l-39.508 1.008c-414.276 0.46-768.664-353.656-768.664-768 0-424.244 343.912-768 768-768 424.244 0 768 343.912 768 768zM3865.584 1083.888c0-518.332-420.148-938.668-938.668-938.668-518.332 0-938.668 420.148-938.668 938.668 0 508.568 430.696 939.008 939.332 938.496 518.16-0.376 938-420.352 938-938.496zM3268.248 1169.22c47.12 0 85.332-38.212 85.332-85.332s-38.212-85.332-85.332-85.332h-682.668c-47.12 0-85.332 38.212-85.332 85.332s38.212 85.332 85.332 85.332h682.668zM3838.756 1130.888c-23.672 466.584-397.568 840.668-864.172 864.664l-47 1.16c-494.472 0.496-913.664-418.388-913.664-912.828l1.16-47c24.472-482.524 423.408-865.996 911.836-865.996 504.372 0 913 408.816 913 913l-1.16 47zM3668.412 1120.888c-18.636 379.752-322.56 684.648-702.004 704.496l-39.32 0.836c-399.924 0.172-742.504-342.272-742.504-742.332l0.836-38.16c19.864-392.364 344.336-704.172 741.496-704.172 410.096 0 742.332 332.372 742.332 742.332l-0.836 37zM3327.916 1083.888c0 32.988-26.676 59.664-59.664 59.664h-682.668c-32.988 0-59.664-26.676-59.664-59.664s26.676-59.664 59.664-59.664h682.668c32.988 0 59.664 26.676 59.664 59.664zM3379.252 1083.888c0-61.268-49.732-111-111-111h-682.668c-61.268 0-111 49.732-111 111s49.732 111 111 111h682.668c61.268 0 111-49.732 111-111zM3719.424 1043.064c-21.264-419.26-367.82-752.844-792.508-752.844-424.532 0-771.244 333.448-792.508 752.844l-1.16 40.824c0 428.492 365.908 794.128 794.332 793.668h0.664l39.508-1.008 0.664-0.152 38.996-2.832c400.536-40.328 713.164-378.556 713.164-789.676l-1.16-40.824zM3889.92 1034.224c-25.856-509.388-447.012-914.672-963.004-914.672-515.804 0-937.148 405.096-963.004 914.672l-1.332 49.664c0 522.716 442.232 964.676 965 964.164l49.664-1.332c509.2-26.18 914.004-447.216 914.004-962.832l-1.332-49.664zM1099.252 3428.888c121.688 93.044 290.808 93.036 412.5 0l124.668-95.332 155.84-21 27.988-4.832c138.58-30.4 244.684-144.552 263.664-287l20.516-155 95.488-125 16.504-23.5c71.168-111.312 71.204-254.364 0-365.668l-16.504-23.332c-28.040-36.676-56.252-73.656-77.652-101.668-6.672-8.728-12.748-16.512-17.836-23.168l-20.668-155.66c-20.308-152.1-139.98-271.396-291.84-291.668l-155.164-20.496-125-95.676-0.168 0.172c-114.052-87.144-269.584-92.74-388.832-16.504l-23.5 16.504-124.836 95.504-155.5 20.668c-152.124 20.276-271.552 139.928-291.832 291.824l-20.668 155.504-95.332 124.668c-92.924 121.788-93.076 290.768 0 412.5l77.668 101.5c6.676 8.732 12.568 16.672 17.664 23.332l21 155.5 4.832 28.168c30.428 138.544 144.58 244.676 287 263.668l155.168 20.668 124.836 95.332zM1911.912 2317.056c0.292 0.368 0.872 0.72 1.332 1.336 1.604 2.080 3.908 5.276 7.016 9.332 6.212 8.116 15.156 19.716 25.82 33.668 21.248 27.788 49.748 65.14 77.672 101.668l10.496 16.5c18.124 34.316 18.14 75.524 0 109.836l-10.496 16.5-113.34 148.332c-8.788 11.512-15.24 24.6-18.996 38.5l-2.832 14.168-24.66 184.5c-7.048 52.86-48.384 94.288-101 101.332l-185.168 24.668c-19.152 2.572-37.32 10.26-52.668 22l-148.164 113.168c-36.876 28.184-86.308 31.808-126.336 10.668l-16.5-10.668-148.332-113.332-0.164 0.332c-9.448-7.22-19.892-13.252-31.5-17.168l-20.832-5-184.668-24.5c-46.288-6.172-83.828-38.68-97.168-82l-4.164-19.164-24.668-185c-3.66-27.368-17.396-50.908-36.668-68 0.844 0.684 1.684 1.068 2.168 1.5 3.9 3.632 6.748 6.86 7.168 7.332 1.56 1.752 2.856 3.16 3 3.336 0.66 0.804 1.14 1.464 1.164 1.5 0.188 0.236 0.292 0.324 0.168 0.168-0.276-0.356-0.848-1.104-1.668-2.164-1.6-2.080-4.072-5.124-7.168-9.168-6.204-8.1-15.028-19.752-25.668-33.668l-77.668-101.668c-32.192-42.104-32.344-100.608 0-143l113.332-148.332 8-12c7.168-12.472 11.92-26.316 13.832-40.668l24.5-184.5 4.164-19.164c13.368-43.468 50.92-75.86 97-82.004l185-24.832 14.164-2.832c13.908-3.736 26.984-10.188 38.5-18.996l148.164-113.34 16.5-10.496c40.016-21.164 89.452-17.664 126.336 10.496l148.5 113.34c14.892 11.384 32.684 19.2 52.5 21.828l184.66 24.66 19.164 4.18c43.436 13.364 75.844 50.792 82.004 96.82l24.832 185.172 4.828 20.832c4.232 12.504 10.48 24.032 18.5 34zM1922.92 2328.72c-4.044-3.768-6.928-7.228-7.168-7.5-0.392-0.44-0.836-0.784-1.16-1.168 3.208 3.724 6.808 7.080 10.496 10.332-0.888-0.712-1.672-1.22-2.168-1.668zM1945.088 2344.72l-0.172-0.164c0.172 0.096 0.324 0.236 0.496 0.332l-0.324-0.168z" />
<glyph unicode="deactivate-license" glyph-name="deactivate-license" d="M2477.16 3413.4v-435.644c0-208.18 182.476-390.736 419.552-390.736h474.092v399.716c0 235.64-191.036 426.664-426.66 426.664h-466.984zM2221.16 3413.4h-1111.692c-235.644 0-426.668-191.024-426.668-426.664v-2389.332c0-235.644 191.024-426.66 426.668-426.66h1834.676c235.624 0 426.66 191.016 426.66 426.66v1733.616h-474.092c-365.24 0-675.552 284.308-675.552 646.736v435.644zM426.8 2986.732c0 377.028 305.64 682.668 682.668 682.668h1834.676c377.016 0 682.66-305.64 682.66-682.668v-2389.332c0-377.036-305.644-682.66-682.66-682.66h-1834.676c-377.028 0-682.668 305.624-682.668 682.66v2389.332zM2048.144 819.26c-348.76 0-631.476 282.728-631.476 631.48 0 348.74 282.716 631.456 631.476 631.456 348.732 0 631.46-282.716 631.46-631.456 0-348.752-282.728-631.48-631.46-631.48zM2048.144 597.4c471.264 0 853.32 382.056 853.32 853.34 0 471.276-382.056 853.324-853.32 853.324-471.292 0-853.344-382.052-853.344-853.324 0-471.284 382.052-853.34 853.344-853.34zM1595.868 1450.74c0 61.256 49.668 110.92 110.932 110.92h682.664c61.276 0 110.94-49.664 110.94-110.92 0-61.276-49.664-110.94-110.94-110.94h-682.664c-61.264 0-110.932 49.664-110.932 110.94z" />
<glyph unicode="cross" glyph-name="cross" d="M1285.312 2735.908c-49.988 49.988-131.032 49.988-181.020 0s-49.988-131.032 0-181.020l848.156-848.148-848.156-848.16c-49.988-49.992-49.988-131.032 0-181.024s131.032-49.992 181.020 0l848.152 848.16 848.16-848.16c49.992-49.992 131.032-49.992 181.024 0s49.992 131.032 0 181.024l-848.16 848.16 848.16 848.148c49.992 49.988 49.992 131.032 0 181.020s-131.032 49.988-181.024 0l-848.16-848.156-848.152 848.156z" />
<glyph unicode="check" glyph-name="check" d="M3260.3 2823.696c17.468 17.828 38.296 31.988 61.324 41.656 22.996 9.668 47.72 14.648 72.676 14.648s49.68-4.98 72.676-14.648c23.024-9.668 43.884-23.828 61.352-41.656 73.2-73.984 74.224-193.536 2.544-268.8l-1513.716-1789.444c-17.188-18.872-38.044-34.028-61.292-44.56-23.252-10.56-48.404-16.236-73.924-16.704-25.52-0.496-50.872 4.244-74.5 13.896s-45.040 24.048-62.924 42.248l-921.088 933.38c-35.524 36.228-55.42 84.944-55.42 135.68s19.896 99.452 55.42 135.68c17.472 17.828 38.324 31.988 61.336 41.656s47.72 14.648 72.68 14.648c24.964 0 49.668-4.98 72.684-14.648s43.864-23.828 61.336-41.656l781.312-791.808 1382.412 1644.8c1.58 1.976 3.276 3.86 5.12 5.632z" />
<glyph unicode="caret-up" glyph-name="caret-up" d="M1608.612 1450.6c-76.8 0-130.132 34.852-160 104.532s-17.776 131.548 36.268 185.6l443.74 443.736c17.068 17.068 35.548 29.868 55.468 38.4 19.9 8.532 41.232 12.8 64 12.8 22.748 0 44.084-4.268 64-12.8 19.9-8.532 38.4-21.332 55.468-38.4l443.732-443.736c54.032-54.052 66.132-115.916 36.268-185.6s-83.2-104.532-160-104.532h-878.94z" />
<glyph unicode="caret-down" glyph-name="caret-down" d="M1928.62 1399.468l-443.74 443.732c-54.044 54.052-66.132 115.916-36.268 185.6s83.2 104.532 160 104.532h878.94c76.8 0 130.132-34.852 160-104.532s17.768-131.548-36.268-185.6l-443.732-443.732c-17.068-17.068-35.568-29.868-55.468-38.4-19.916-8.532-41.252-12.8-64-12.8-22.768 0-44.1 4.268-64 12.8-19.916 8.532-38.4 21.332-55.468 38.4z" />
<glyph unicode="avatar" glyph-name="avatar" d="M2333.952 2931.904c-158.292 158.296-414.936 158.296-573.228 0s-158.296-414.936 0-573.228c158.292-158.292 414.936-158.292 573.228 0s158.292 414.936 0 573.228zM1489.196 3203.432c308.256 308.256 808.032 308.256 1116.296 0 308.248-308.256 308.248-808.032 0-1116.284-308.264-308.256-808.040-308.256-1116.296 0s-308.256 808.032 0 1116.284zM1008.996 1468.204c289.136 168.324 665.036 258.388 1038.34 258.388s749.208-90.064 1038.336-258.388c287.412-167.32 518.988-432.964 518.988-785.58v-170.676c0-200.244-162.408-362.648-362.648-362.648h-2389.344c-200.244 0-362.668 162.408-362.668 362.648v170.676c0 352.616 231.588 618.26 518.996 785.58zM1202.192 1136.332c-222.544-129.536-328.196-289.896-328.196-453.708v-149.324h2346.66v149.324c0 163.816-105.652 324.172-328.192 453.708-220.8 128.564-527.58 206.26-845.132 206.26s-624.324-77.696-845.14-206.26z" />
<glyph unicode="arrow_long_down" glyph-name="arrow_long_down" d="M2048.136 157.868c-22.768 0-44.1 3.548-64 10.668-19.916 7.116-38.4 19.2-55.468 36.268l-955.736 955.732c-31.288 31.284-46.932 70.4-46.932 117.332s15.644 87.468 46.932 121.6c34.132 34.132 74.668 51.2 121.6 51.2s87.468-17.068 121.6-51.2l661.336-661.332v2589.868c0 48.356 16.348 88.888 49.068 121.6 32.7 32.712 73.232 49.068 121.6 49.068 48.348 0 88.884-16.356 121.6-49.068 32.7-32.712 49.068-73.244 49.068-121.6v-2589.868l665.6 661.332c31.284 31.284 70.4 47.652 117.332 49.068s87.468-14.932 121.6-49.068c31.284-31.284 46.932-71.116 46.932-119.468s-15.652-88.184-46.932-119.468l-955.732-955.732c-17.068-17.068-35.568-29.148-55.468-36.268-19.916-7.116-41.252-10.668-64-10.668z" />
<glyph unicode="arrow_left" glyph-name="arrow_left" d="M2321 887.4l-785.064 785.060c-17.064 17.080-29.156 35.572-36.264 55.48s-10.664 41.248-10.664 64c0 22.752 3.556 44.084 10.664 63.992s19.2 38.4 36.264 55.468l785.064 785.064c31.292 31.288 71.108 46.936 119.46 46.936 48.372 0 88.188-15.644 119.48-46.936s46.92-71.112 46.92-119.464c0-48.356-15.628-88.18-46.92-119.468l-665.608-665.592 665.608-665.6c31.292-31.292 46.92-71.108 46.92-119.48 0-48.352-15.628-88.168-46.92-119.46s-71.108-46.94-119.48-46.94c-48.352 0-88.168 15.648-119.46 46.94z" />
</font>
</defs>
</svg>
